Loading...
Error
 

Скачать торрент (Jpop, Aor, Funk, Soul, CityPop) Tetsuji Hayashi - Bruges - 1973, [FLAC, tracks +.cue, lossless]

 
Автор Сообщение

Myster_Ya

post 20-Апр-20 06:31

pic
Tetsuji Hayashi - Bruges

Год издания: 1973
Жанр: Jpop, Aor, Funk, Soul, CityPop
Продолжительность: 00:38:14
Лейбл издания: Polydor
Страна-выпуска диска: Japan
Номер по каталогу: PROA-90
Формат: FLAC
Битрейт аудио: Lossless
Тип рипа: tracks+.cue
Источник: скачано из сети
Наличие сканов в содержимом раздачи: нет
Треклист:
01. loneliness Next To Me(僕の隣の孤独)
02. Monday Morning(月曜日の朝)
03. The World Of love (In Your Arms)(愛の世界(あなたの腕の中で))
04. Ice Cream Dream (A)(アイスクリームの夢(A))
05. Promise(約束)
06. Hard Every Day(つらい毎日)
07. Please Give Me a little Time(わずかな時間をください)
08. 5:00 am event(午前5時の出来事)
09. Ice Cream Dream (B)(アイスクリームの夢(B))
10. Gray Coat(灰色のコート)
11. Bruges(ブルージェ)
Лог создания рипа
Exact Audio Copy V1.3 from 2. September 2016

EAC extraction logfile from 25. October 2019, 9:11

Tetsuji Hayashi / Bruges

Used drive : hp DVDRW DU8A6SH Adapter: 1 ID: 0

Read mode : Secure
Utilize accurate stream : Yes
Defeat audio cache : Yes
Make use of C2 pointers : No

Read offset correction : 6
Overread into Lead-In and Lead-Out : No
Fill up missing offset samples with silence : Yes
Delete leading and trailing silent blocks : No
Null samples used in CRC calculations : Yes
Used interface : Native Win32 interface for Win NT & 2000
Gap handling : Appended to previous track

Used output format : User Defined Encoder
Selected bitrate : 128 kBit/s
Quality : High
Add ID3 tag : No
Command line compressor : C:\Program Files (x86)\Exact Audio Copy\Flac\flac.exe
Additional command line options : -8 -e -p -V -T "ARTIST=%artist%" -T "TITLE=%title%" -T "ALBUM=%albumtitle%" -T "DATE=%year%" -T "TRACKNUMBER=%tracknr%" -T "GENRE=%genre%" -T "PERFORMER=%albuminterpret%" -T "COMPOSER=%composer%" %haslyrics%--tag-from-file=LYRICS="%lyricsfile%"%haslyrics% -T "ALBUMARTIST=%albumartist%" -T "DISCNUMBER=%cdnumber%" -T "TOTALDISCS=%totalcds%" -T "TOTALTRACKS=%numtracks%" -T "COMMENT=%comment%" %source% -o %dest%

TOC of the extracted CD

Track | Start | Length | Start sector | End sector
---------------------------------------------------------
1 | 0:00.00 | 4:17.13 | 0 | 19287
2 | 4:17.13 | 3:18.57 | 19288 | 34194
3 | 7:35.70 | 4:25.53 | 34195 | 54122
4 | 12:01.48 | 2:03.47 | 54123 | 63394
5 | 14:05.20 | 3:31.05 | 63395 | 79224
6 | 17:36.25 | 2:54.37 | 79225 | 92311
7 | 20:30.62 | 4:45.74 | 92312 | 113760
8 | 25:16.61 | 3:47.02 | 113761 | 130787
9 | 29:03.63 | 2:05.33 | 130788 | 140195
10 | 31:09.21 | 3:00.70 | 140196 | 153765
11 | 34:10.16 | 4:04.58 | 153766 | 172123

Track 1

Filename C:\Users\user\Music\EAC Rips SEPTEMBER\Tetsuji Hayashi - Bruges (1973) [FLAC] {2007 PROA90 CD JP}\01 - 僕の隣の孤独.wav

Pre-gap length 0:00:02.00

Peak level 99.7 %
Extraction speed 1.1 X
Track quality 100.0 %
Test CRC 22556357
Copy CRC 22556357
Accurately ripped (confidence 1) [781C9C7D] (AR v2)
Copy OK

Track 2

Filename C:\Users\user\Music\EAC Rips SEPTEMBER\Tetsuji Hayashi - Bruges (1973) [FLAC] {2007 PROA90 CD JP}\02 - 月曜日の朝.wav

Pre-gap length 0:00:02.96

Peak level 99.7 %
Extraction speed 1.2 X
Track quality 100.0 %
Test CRC DD12A37A
Copy CRC DD12A37A
Accurately ripped (confidence 1) [B0AEE545] (AR v2)
Copy OK

Track 3

Filename C:\Users\user\Music\EAC Rips SEPTEMBER\Tetsuji Hayashi - Bruges (1973) [FLAC] {2007 PROA90 CD JP}\03 - 愛の世界(あなたの腕の中で).wav

Pre-gap length 0:00:02.65

Peak level 99.7 %
Extraction speed 1.3 X
Track quality 100.0 %
Test CRC E9E6E2BB
Copy CRC E9E6E2BB
Accurately ripped (confidence 1) [D9FC2878] (AR v2)
Copy OK

Track 4

Filename C:\Users\user\Music\EAC Rips SEPTEMBER\Tetsuji Hayashi - Bruges (1973) [FLAC] {2007 PROA90 CD JP}\04 - アイスクリームの夢(A).wav

Pre-gap length 0:00:02.26

Peak level 96.5 %
Extraction speed 1.2 X
Track quality 100.0 %
Test CRC 292CEDBB
Copy CRC 292CEDBB
Accurately ripped (confidence 1) [77528C5B] (AR v2)
Copy OK

Track 5

Filename C:\Users\user\Music\EAC Rips SEPTEMBER\Tetsuji Hayashi - Bruges (1973) [FLAC] {2007 PROA90 CD JP}\05 - 約束.wav

Pre-gap length 0:00:02.13

Peak level 99.8 %
Extraction speed 1.4 X
Track quality 100.0 %
Test CRC 22ACC319
Copy CRC 22ACC319
Accurately ripped (confidence 1) [5C09C6D4] (AR v2)
Copy OK

Track 6

Filename C:\Users\user\Music\EAC Rips SEPTEMBER\Tetsuji Hayashi - Bruges (1973) [FLAC] {2007 PROA90 CD JP}\06 - つらい毎日.wav

Pre-gap length 0:00:02.01

Peak level 99.7 %
Extraction speed 1.4 X
Track quality 100.0 %
Test CRC 12C0FE01
Copy CRC 12C0FE01
Accurately ripped (confidence 1) [24DA210E] (AR v2)
Copy OK

Track 7

Filename C:\Users\user\Music\EAC Rips SEPTEMBER\Tetsuji Hayashi - Bruges (1973) [FLAC] {2007 PROA90 CD JP}\07 - わずかな時間をください.wav

Pre-gap length 0:00:02.52

Peak level 99.8 %
Extraction speed 1.6 X
Track quality 100.0 %
Test CRC 4E5E2A84
Copy CRC 4E5E2A84
Accurately ripped (confidence 1) [9779350E] (AR v2)
Copy OK

Track 8

Filename C:\Users\user\Music\EAC Rips SEPTEMBER\Tetsuji Hayashi - Bruges (1973) [FLAC] {2007 PROA90 CD JP}\08 - 午前5時の出来事.wav

Pre-gap length 0:00:01.28

Peak level 99.8 %
Extraction speed 1.7 X
Track quality 100.0 %
Test CRC 9F179D72
Copy CRC 9F179D72
Accurately ripped (confidence 1) [08791D30] (AR v2)
Copy OK

Track 9

Filename C:\Users\user\Music\EAC Rips SEPTEMBER\Tetsuji Hayashi - Bruges (1973) [FLAC] {2007 PROA90 CD JP}\09 - アイスクリームの夢(B).wav

Pre-gap length 0:00:02.40

Peak level 99.7 %
Extraction speed 1.6 X
Track quality 100.0 %
Test CRC 0B2B39C4
Copy CRC 0B2B39C4
Accurately ripped (confidence 1) [8339742D] (AR v2)
Copy OK

Track 10

Filename C:\Users\user\Music\EAC Rips SEPTEMBER\Tetsuji Hayashi - Bruges (1973) [FLAC] {2007 PROA90 CD JP}\10 - 灰色のコート.wav

Pre-gap length 0:00:01.82

Peak level 99.7 %
Extraction speed 1.5 X
Track quality 99.9 %
Test CRC 38C06606
Copy CRC 38C06606
Accurately ripped (confidence 1) [28101BCB] (AR v2)
Copy OK

Track 11

Filename C:\Users\user\Music\EAC Rips SEPTEMBER\Tetsuji Hayashi - Bruges (1973) [FLAC] {2007 PROA90 CD JP}\11 - ブルージェ.wav

Pre-gap length 0:00:02.61

Peak level 99.7 %
Extraction speed 1.9 X
Track quality 100.0 %
Test CRC 710FE2E3
Copy CRC 710FE2E3
Accurately ripped (confidence 1) [C46D92B1] (AR v2)
Copy OK

All tracks accurately ripped

No errors occurred

End of status report

---- CUETools DB Plugin V2.1.6

[CTDB TOCID: ZAGg2TQThuuJ49C4O.aDT7tBmz4-] found
Submit result: ZAGg2TQThuuJ49C4O.aDT7tBmz4- has been confirmed
Track | CTDB Status
1 | (1/1) Accurately ripped
2 | (1/1) Accurately ripped
3 | (1/1) Accurately ripped
4 | (1/1) Accurately ripped
5 | (1/1) Accurately ripped
6 | (1/1) Accurately ripped
7 | (1/1) Accurately ripped
8 | (1/1) Accurately ripped
9 | (1/1) Accurately ripped
10 | (1/1) Accurately ripped
11 | (1/1) Accurately ripped

==== Log checksum D7E271228DA9DE61E55F21B2790884AF01C3C844AF535751B02F8EE14B0CC7D4 ====
Содержание индексной карты (.CUE)
REM GENRE Pop
REM DATE 1973
REM DISCID 9108F60B
REM COMMENT "ExactAudioCopy v1.3"
CATALOG 0028945063164
PERFORMER "Tetsuji Hayashi"
TITLE "Bruges"
REM COMPOSER ""
FILE "01.loneliness Next To Me.wav" WAVE
TRACK 01 AUDIO
TITLE "Loneliness Next To Me"
PERFORMER "Tetsuji Hayashi"
REM COMPOSER ""
ISRC JPPO07302080
INDEX 01 00:00:00
TRACK 02 AUDIO
TITLE "Monday Morning"
PERFORMER "Tetsuji Hayashi"
REM COMPOSER ""
ISRC JPPO07306810
INDEX 00 04:14:16
FILE "02.Monday Morning.wav" WAVE
INDEX 01 00:00:00
TRACK 03 AUDIO
TITLE "The World Of love (In Your Arms)"
PERFORMER "Tetsuji Hayashi"
REM COMPOSER ""
ISRC JPPO07306820
INDEX 00 03:16:08
FILE "03.The World Of love (In Your Arms).wav" WAVE
INDEX 01 00:00:00
TRACK 04 AUDIO
TITLE "Ice Cream Dream(A)"
PERFORMER "Tetsuji Hayashi"
REM COMPOSER ""
ISRC JPPO07306830
INDEX 00 04:23:33
FILE "04.Ice Cream Dream(A).wav" WAVE
INDEX 01 00:00:00
TRACK 05 AUDIO
TITLE "Promise"
PERFORMER "Tetsuji Hayashi"
REM COMPOSER ""
ISRC JPPO07301470
INDEX 00 02:01:37
FILE "05.Promise.wav" WAVE
INDEX 01 00:00:00
TRACK 06 AUDIO
TITLE "Hard Every Day"
PERFORMER "Tetsuji Hayashi"
REM COMPOSER ""
ISRC JPPO07306840
INDEX 00 03:29:04
FILE "06.Hard Every Day.wav" WAVE
INDEX 01 00:00:00
TRACK 07 AUDIO
TITLE "Please Give Me a little Time"
PERFORMER "Tetsuji Hayashi"
REM COMPOSER ""
ISRC JPPO07306850
INDEX 00 02:51:73
FILE "07.Please Give Me a little Time.wav" WAVE
INDEX 01 00:00:00
TRACK 08 AUDIO
TITLE "5 00 am event"
PERFORMER "Tetsuji Hayashi"
REM COMPOSER ""
ISRC JPPO07302090
INDEX 00 04:44:53
FILE "08.5 00 am event.wav" WAVE
INDEX 01 00:00:00
TRACK 09 AUDIO
TITLE "Ice Cream Dream (B)"
PERFORMER "Tetsuji Hayashi"
REM COMPOSER ""
ISRC JPPO07306860
INDEX 00 03:44:47
FILE "09.Ice Cream Dream (B).wav" WAVE
INDEX 01 00:00:00
TRACK 10 AUDIO
TITLE "Gray Coat"
PERFORMER "Tetsuji Hayashi"
REM COMPOSER ""
ISRC JPPO07306870
INDEX 00 02:03:46
FILE "10.Gray Coat.wav" WAVE
INDEX 01 00:00:00
TRACK 11 AUDIO
TITLE "Bruges"
PERFORMER "Tetsuji Hayashi"
REM COMPOSER ""
ISRC JPPO07306880
INDEX 00 02:58:24
FILE "11.Bruges.wav" WAVE
INDEX 01 00:00:00
Tetsuji Hayashi-Bruges(1973.04.00)(lossless).torrent
Трекер: Зарегистрирован

magnet ссылка

 


Скачать .torrent

19 KB

Статус: проверено (by ilyash_rekviem в 20-Апр-20 12:09)
Зарегистрирован: 20-Апр-20 06:31
Скачан: 2 раза
Размер: 226 MB | 
Поблагодарили:
Скачать (Jpop, Aor, Funk, Soul, CityPop) Tetsuji Hayashi - Bruges - 1973, [FLAC, tracks +.cue, lossless] торрент
 


Похожие раздачи

Текущее время: 03-Июн 05:10

Часовой пояс: GMT + 3



Вы не можете начинать темы
Вы не можете отвечать на сообщения
Вы не можете редактировать свои сообщения
Вы не можете удалять свои сообщения
Вы не можете голосовать в опросах
Вы не можете прикреплять файлы к сообщениям
Вы не можете скачивать файлы