Loading...
Error
 

Скачать торрент Паприка / Paprika (Сатоси Кон) [2006, аниме, мультфильм, фантастика, детектив, BDRip 1080p] [MVO] [ВидеоСервис]

 
Автор Сообщение

Roman2013

post 10-Сен-19 15:22

Паприка | Paprika
«Это твой мозг в аниме.»
pic

Год выпуска: 2006
Страна: Япония
Жанр: Аниме, мультфильм, фантастика, детектив
Продолжительность: 01:30:32
Перевод: Профессиональный многоголосый закадровый (ВидеоСервис)
Субтитры: Русские
Режиссёр: Сатоси Кон
В ролях: Мэгуми Хаясибара, Тору Фуруя, Коити Ямадэра, Кацуносукэ Хори, Тору Эмори, Акио Оцука, Хидэюки Танака, Сатоми Короги, Дайсукэ Сакагути, Ивата Мицуо
Описание: Устройство DC Mini позволяет терапевтам проникать в сны пациентов, а также записывать их на пленку. Три таких устройства были украдены, что дает их владельцу возможность не только проникать в фантазии людей, но также проникать в сознание и открывать им путь в собственные фантазии. Задача героев состоит в возвращении устройств, в выполнении которой на помощь приходит загадочная девушка — Паприка.
Качество: BDRip 1080p
Формат: MKV
Видео кодек: AVC
Аудио кодек: AC3, TrueHD
Видео : 1840 x 992 / (16:9) / 10400 kbps / 23.976 fps / 0.238 bpp / 10 bit
Аудио №1: Русский, ВидеоСервис: AC-3 / 6.0/ 48 kHz/ 384 Kbps
Аудио №2: Японский, 日本語: TrueHD / 6.0/ 48 kHz/ 1641 Kbps

Рейтинг
pic
Paprika - Trailer (HD 1080p)
MediaInfo
General
Unique ID : 218253955158037168348778208554774876324 (0xA4322ECA2502380F77E1DFEE8E76D0A4)
Complete name : Paprika.2006.BDRip.1080.Rus.Jap.mkv
Format : Matroska
Format version : Version 4
File size : 7.92 GiB
Duration : 1 h 30 min
Overall bit rate mode : Variable
Overall bit rate : 12.5 Mb/s
Encoded date : UTC 2019-09-10 10:48:58
Writing application : mkvmerge v37.0.0 ('Leave It') 64-bit
Writing library : libebml v1.3.9 + libmatroska v1.5.2

Video
ID : 1
Format : AVC
Format/Info : Advanced Video Codec
Format profile : High [email protected]
Format settings : CABAC / 10 Ref Frames
Format settings, CABAC : Yes
Format settings, Reference frames : 10 frames
Codec ID : V_MPEG4/ISO/AVC
Duration : 1 h 30 min
Bit rate : 10.4 Mb/s
Width : 1 840 pixels
Height : 992 pixels
Display aspect ratio : 1.85:1
Frame rate mode : Constant
Frame rate : 23.976 (24000/1001) FPS
Color space : YUV
Chroma subsampling : 4:2:0
Bit depth : 10 bits
Scan type : Progressive
Bits/(Pixel*Frame) : 0.238
Stream size : 6.60 GiB (83%)
Title : [Kagura] Paprika [BDRip 1840x992 x264 Hi10P TrueHD]
Writing library : x264 core 142 r2431+42 c69a006 tMod [[email protected] X86_64]
Encoding settings : cabac=1 / ref=10 / deblock=1:0:0 / analyse=0x3:0x133 / me=umh / subme=10 / psy=1 / fade_compensate=0.00 / psy_rd=0.80:0.12 / mixed_ref=1 / me_range=32 / chroma_me=1 / trellis=2 / 8x8dct=1 / cqm=0 / deadzone=21,11 / fast_pskip=0 / chroma_qp_offset=-4 / threads=18 / lookahead_threads=4 / sliced_threads=0 / nr=0 / decimate=0 / interlaced=0 / bluray_compat=0 / constrained_intra=0 / fgo=1 / bframes=12 / b_pyramid=2 / b_adapt=2 / b_bias=0 / direct=3 / weightb=1 / open_gop=0 / weightp=2 / keyint=480 / keyint_min=4 / scenecut=50 / intra_refresh=0 / rc=crf / mbtree=0 / crf=16.5000 / qcomp=0.75 / qpmin=8:8:8 / qpmax=40:40:40 / qpstep=4 / ip_ratio=1.35 / pb_ratio=1.25 / aq=3:0.90 / aq-sensitivity=10.00 / aq-factor=1.00:1.00:1.00 / aq2=0 / aq3=0
Language : Japanese
Default : Yes
Forced : No

Audio #1
ID : 2
Format : AC-3
Format/Info : Audio Coding 3
Commercial name : Dolby Digital
Codec ID : A_AC3
Duration : 1 h 30 min
Bit rate mode : Constant
Bit rate : 384 kb/s
Channel(s) : 6 channels
Channel layout : L R C LFE Ls Rs
Sampling rate : 48.0 kHz
Frame rate : 31.250 FPS (1536 SPF)
Bit depth : 16 bits
Compression mode : Lossy
Stream size : 249 MiB (3%)
Title : ВидеоСервис
Language : Russian
Service kind : Complete Main
Default : Yes
Forced : Yes

Audio #2
ID : 3
Format : MLP FBA
Format/Info : Meridian Lossless Packing FBA
Commercial name : Dolby TrueHD
Codec ID : A_TRUEHD
Duration : 1 h 30 min
Bit rate mode : Variable
Bit rate : 1 641 kb/s
Maximum bit rate : 3 168 kb/s
Channel(s) : 6 channels
Channel layout : L R C LFE Ls Rs
Sampling rate : 48.0 kHz
Frame rate : 1 200.000 FPS (40 SPF)
Compression mode : Lossless
Stream size : 1.04 GiB (13%)
Language : Japanese
Default : No
Forced : No

Text
ID : 4
Format : ASS
Codec ID : S_TEXT/ASS
Codec ID/Info : Advanced Sub Station Alpha
Duration : 1 h 24 min
Bit rate : 94 b/s
Count of elements : 832
Compression mode : Lossless
Stream size : 58.4 KiB (0%)
Language : Russian
Default : Yes
Forced : No
Скриншоты
Paprika.2006.BDRip.1080.Rus.Jap.mkv.torrent
 СЕРЕБРЯНАЯ РАЗДАЧА! СКАЧАННОЕ ЗАСЧИТЫВАЕТСЯ ТОЛЬКО НАПОЛОВИНУ! 
Вечный
Трекер: Зарегистрирован

magnet ссылка

 


Скачать .torrent

20 KB

Статус: проверено (by MARKUS в 10-Сен-19 15:35)
Зарегистрирован: 10-Сен-19 15:22
Скачан: 66 раз
Размер: 7.92 GB | 
Поблагодарили:
Скачать Паприка / Paprika (Сатоси Кон) [2006, аниме, мультфильм, фантастика, детектив, BDRip 1080p] [MVO] [ВидеоСервис] торрент
 


Похожие раздачи

asphodel05

post 10-Сен-19 15:37 (спустя 14 минут)

Культовая классика. Жаль, что Сатоши Кон скончался, огромного таланта был человек.

DarkArt

post 10-Сен-19 16:57 (спустя 1 час 20 минут)

asphodel05
Полностью согласен. Уникальное анимэ снимал.

Текущее время: 16-Сен 15:27

Часовой пояс: GMT + 3



Вы не можете начинать темы
Вы не можете отвечать на сообщения
Вы не можете редактировать свои сообщения
Вы не можете удалять свои сообщения
Вы не можете голосовать в опросах
Вы не можете прикреплять файлы к сообщениям
Вы не можете скачивать файлы