Loading...
Error
 

Скачать торрент Танцы (6 Сезон / 1-5 выпуск из 20) [2019, Реалити-шоу, танцы, развлекательный, хореография, SATRip]

 
Автор Сообщение

ilyash_rekviem

post 02-Сен-19 00:54

Танцы
6й сезон

pic
Информация о фильме
picГод выхода: 2019
picСтрана: Россия, Comedy Club Production, Телеканал ТНТ
picЖанр: Реалити-шоу, танцы, развлекательный, хореография
picПродолжительность: ~ 01:33:00
picСезоны / серии: 6 сезон / 1-5 серии из 20
picПеревод: Не требуется
picCубтитры: Отсутствуют
picРежиссер: Анатолий Шпульников
picВ ролях: Мигель, Татьяна Денисова (I), Егор Дружинин, Сергей Светлаков
picВедущая: Ляйсан Утяшева
О фильме
Шоу «Танцы» на ТНТ возвращается с новым сезоном. На этапе кастинга приглашенные члены жюри Иван Дорн, Лена Темникова, Ксения Бородина, а также уже опытные эксперты Ольга Бузова и Юлия Ахмедова помогут наставникам шоу не просто оценить танцевальные способности участников, но и почувствовать их харизму и разглядеть артистизм каждого танцовщика. В этом сезоне зрителей ждет и специальный детский выпуск шоу «ТАНЦЫ»: продюсеры проекта отсмотрели тысячи видео-заявок и пригласили на московский кастинг лучших юных танцовщиков. На кастинге наставники вместе с приглашенным членом жюри будут отбирать детей для участия в концерте, в котором дети выступят вместе с подопечными Мигеля, Егора Дружинина и Татьяны Денисовой.
Файл
picКачество: SATRip
picФормат: AVI
picВидео кодек: Xvid
picАудио кодек: MP3
picВидео: 1649 Кбит/с, 720x400, 25.000 fps
picАудио #1: MP3, 2 ch, 192 Кбит/с, 48.0 KHz | RUS
MediaInfo

Код:

D:\Tancy.S06.XviD.SATRip.25Kuzmich\Tancy.s06.e01.XviD.SATRip.25Kuzmich.avi
  General
    Complete name : D:\Tancy.S06.XviD.SATRip.25Kuzmich\Tancy.s06.e01.XviD.SATRip.25Kuzmich.avi
    Format : AVI
    Format/Info : Audio Video Interleave
    File size : 1.21 GiB
    Duration : 1h 33mn
    Overall bit rate : 1 851 Kbps
    Writing application : VirtualDubMod 1.5.10.3| (build 2550/release)
    Writing library : VirtualDubMod build 2550/release
  Video #0
    ID : 0
    Format : MPEG-4 Visual
    Format profile : Advanced [email protected]
    Format settings, BVOP : 1
    Format settings, QPel : No
    Format settings, GMC : No warppoints
    Format settings, Matrix : Default (MPEG)
    Codec ID : XVID
    Codec ID/Hint : XviD
    Duration : 1h 33mn
    Bit rate : 1 649 Kbps
    Width : 720 pixels
    Height : 400 pixels
    Display aspect ratio : 16:9
    Frame rate : 25.000 fps
    Color space : YUV
    Chroma subsampling : 4:2:0
    Bit depth : 8 bits
    Scan type : Progressive
    Compression mode : Lossy
    Bits/(Pixel*Frame) : 0.229
    Stream size : 1.08 GiB (89%)
    Writing library : XviD 73
  Audio #1
    ID : 1
    Format : MPEG Audio
    Format version : Version 1
    Format profile : Layer 3
    Mode : Joint stereo
    Codec ID : 55
    Codec ID/Hint : MP3
    Duration : 1h 33mn
    Bit rate mode : Constant
    Bit rate : 192 Kbps
    Channel(s) : 2 channels
    Sampling rate : 48.0 KHz
    Compression mode : Lossy
    Stream size : 129 MiB (10%)
    Alignment : Aligned on interleaves
    Interleave, duration : 40 ms (1.00 video frame)
    Interleave, preload duration : 504 ms
    Writing library : LAME3.99r
    Encoding settings : -m j -V 4 -q 2 -lowpass 18.6 -b 192
Скриншоты
pic
© Оформление by ilyash_rekviem rustoka.com
Tancy.s06.2019.SATRip.torrent
Трекер: Зарегистрирован

magnet ссылка

 


Скачать .torrent

32 KB

Статус: T временно (by Admin в 16-Сен-19 14:15)
Зарегистрирован: 16-Сен-19 14:15
Скачан: 39 раз
Размер: 6.06 GB | 
Поблагодарили:
Скачать Танцы (6 Сезон / 1-5 выпуск из 20) [2019, Реалити-шоу, танцы, развлекательный, хореография, SATRip] торрент
 


Похожие раздачи

AstoRyo

post 02-Сен-19 20:15 (спустя 19 часов)

Жена будет в восторге, а то от этих регистраций на рутубе и листе аж тошнит...

P.S. Спасибо.

ilyash_rekviem

post 08-Сен-19 16:59 (спустя 5 дней)

Добавлен 4й выпуск

ilyash_rekviem

post 16-Сен-19 15:14 (спустя 7 дней)

Добавлен 5й выпуск

Текущее время: 16-Сен 15:37

Часовой пояс: GMT + 3



Вы не можете начинать темы
Вы не можете отвечать на сообщения
Вы не можете редактировать свои сообщения
Вы не можете удалять свои сообщения
Вы не можете голосовать в опросах
Вы не можете прикреплять файлы к сообщениям
Вы не можете скачивать файлы