Loading...
Error
 

Скачать торрент Эти невероятные музыканты, или Новые сновидения Шурика (Юрий Сааков) [1977, комедия, мьюзикл, SATRip]

 
Автор Сообщение

centoriuse

post 31-Авг-19 12:29

pic
Эти невероятные музыканты, или Новые сновидения Шурика

Год выпуска: 1977
Страна: СССР, Мосфильм
Жанр: Комедия, музыка, концертная программа
Продолжительность: 00:59:56
Перевод: не требуется
Субтитры: Отсутствуют
В ролях: Наталья Варлей, Георгий Вицин, Арчил Гомиашвили, Олег Даль, Александр Демьяненко, Валерий Золотухин, Савелий Крамаров, Наталья Крачковская, Леонид Куравлёв, Евгений Моргунов, Вячеслав Невинный, Светлана Светличная, Наталья Селезнёва, Алексей Смирнов
Режиссёр: Юрий Сааков
Описание: Телевизионный фильм-концерт по мотивам популярных комедий Леонида Гайдая «Операция «Ы» и другие приключения Шурика» (1965), «Кавказская пленница, или Новые приключения Шурика» (1966), «Бриллиантовая рука» (196, «12 стульев» (1971), «Иван Васильевич меняет профессию» (1973), «Не может быть!» (1975).
Качество: SATRip
Формат: MPEG
Видео кодек: MPEG2
Аудио кодек: AC-3
Видео: 720x576 (4:3), 25.000 fps, 4 289 kb/s (0.414 bit/pixel)
Аудио: 48.0 kHz, 2 ch, 256 kb/s, CBR
MediaInfo

Код:

Общее
Полное имя                               : F:\видео\фильмы\Эти невероятные музыканты, или Новые сновидения Шурика.1977.SATRip.mpg
Формат                                   : MPEG-PS
Размер файла                             : 1,94 Гбайт
Продолжительность                        : 59 м. 56 с.
Режим общего битрейта                    : Переменный
Общий поток                              : 4637 Кбит/сек
Библиотека кодирования                   : (c) 1998-2008 Womble Multimedia, Inc. / MPEG Video Wizard (08/2008) / Dec 31 2008

Видео
Идентификатор                            : 224 (0xE0)
Формат                                   : MPEG Video
Версия формата                           : Version 2
Профиль формата                          : [email protected]
Настройки формата                        : CustomMatrix / BVOP
Параметр BVOP формата                    : Да
Параметр матрицы формата                 : Выборочная
Параметр GOP формата                     : M=3, N=12
Структура изображения                    : Frame
Продолжительность                        : 59 м. 56 с.
Вид битрейта                             : Переменный
Битрейт                                  : 4289 Кбит/сек
Максимальный битрейт                     : 9396 Кбит/сек
Ширина                                   : 720 пикселей
Высота                                   : 576 пикселей
Соотношение сторон                       : 4:3
Частота кадров                           : 25,000 кадров/сек
Стандарт вещания                         : PAL
Цветовое пространство                    : YUV
Субдискретизация насыщенности            : 4:2:0
Битовая глубина                          : 8 бит
Тип развёртки                            : Чересстрочная
Порядок развёртки                        : Верхнее поле первое
Метод сжатия                             : С потерями
Бит/(Пиксели*Кадры)                      : 0.414
Временной код первого кадра              : 00:00:00:00
Оригинал временного кода                 : Group of pictures header
GOP, открыто/закрыто                     : Закрыто
Размер потока                            : 1,80 Гбайт (92%)
Библиотека кодирования                   : (c) 1998-2008 Womble Multimedia, Inc. / MPEG Video Wizard (08/2008) / Dec 31 2008

Аудио
Идентификатор                            : 189 (0xBD)-128 (0x80)
Формат                                   : AC-3
Формат/Информация                        : Audio Coding 3
Коммерческое название                    : Dolby Digital
Режим смешивания                         : DVD-Video
Продолжительность                        : 59 м. 56 с.
Вид битрейта                             : Постоянный
Битрейт                                  : 256 Кбит/сек
Каналы                                   : 2 канала
Channel layout                           : L R
Частота                                  : 48,0 КГц
Частота кадров                           : 31,250 кадров/сек (1536 SPF)
Битовая глубина                          : 16 бит
Метод сжатия                             : С потерями
Размер потока                            : 110 Мбайт (6%)
ServiceKind/String                       : Complete Main

Меню
Скриншоты
YEti neveroyatnyie muzyikantyi, ili Novyie snovideniya SHurika.1977.SATRip.torrent
Трекер: Зарегистрирован

magnet ссылка

 


Скачать .torrent

20 KB

Статус: проверено (by Snowden в 31-Авг-19 13:11)
Зарегистрирован: 31-Авг-19 12:29
Скачан: 48 раз
Размер: 1.94 GB | 
Поблагодарили:
Скачать Эти невероятные музыканты, или Новые сновидения Шурика (Юрий Сааков) [1977, комедия, мьюзикл, SATRip] торрент
 


Похожие раздачи

satoman

post 31-Авг-19 13:00 (спустя 30 минут)

На русторке это увидеть крайне приятно и удивительно.

Текущее время: 16-Сен 15:15

Часовой пояс: GMT + 3



Вы не можете начинать темы
Вы не можете отвечать на сообщения
Вы не можете редактировать свои сообщения
Вы не можете удалять свои сообщения
Вы не можете голосовать в опросах
Вы не можете прикреплять файлы к сообщениям
Вы не можете скачивать файлы