Loading...
Error
 
Мини-чат
 

Скачать торрент Alizee - La Isla Bonita [2003, Pop, TVRip] [email protected] (up 720p)

 
Автор Сообщение

freelich

post 12-Апр-16 13:23

pic
Alizee - La Isla Bonita

Год выпуска: 2003
Страна: Франция
Жанр: Pop
Продолжительность: 00:03:40
Описание:
Live @ La Chanson N°1 8-06-2003
Качество: TVRip up 720p [email protected] (SSIM: 0.9891435)
Исходник: TVRip
Контейнер: MKV
Видео кодек: [email protected]
Аудио кодек: MP2
Видео: HEVC 12bit at 5612 Кбит/сек, 944 x 720 (1.311) at 25.000 fps
Аудио: MP2 at 224 Кбит/сек, 2 каналов, 48,0 КГц
Медиаинфо

Код:



Общее
Уникальный идентификатор                 : 217006224614976715795598399641653206190 (0xA341E0EC9D245A1AA3E0A8A996E1DCAE)
Полное имя                               : Alizee (La Isla Bonita) 720p.mkv
Формат                                   : Matroska
Версия формата                           : Version 4 / Version 2
Размер файла                             : 153 Мбайт
Продолжительность                        : 3 м. 40 с.
Общий поток                              : 5840 Кбит/сек
Дата кодирования                         : UTC 2016-04-10 12:07:48
Программа кодирования                    : mkvmerge v8.9.0 ('Father Daughter') 32bit
Библиотека кодирования                   : libebml v1.3.3 + libmatroska v1.4.4

Видео
Идентификатор                            : 1
Формат                                   : HEVC
Формат/Информация                        : High Efficiency Video Coding
Идентификатор кодека                     : V_MPEGH/ISO/HEVC
Продолжительность                        : 3 м. 40 с.
Битрейт                                  : 5500 Кбит/сек
Ширина                                   : 944 пикселя
Высота                                   : 720 пикселей
Соотношение сторон                       : 4:3
Режим частоты кадров                     : Постоянный
Частота кадров                           : 25,000 кадров/сек
Цветовое пространство                    : YUV
Субдискретизация насыщенности            : 4:2:0
Битовая глубина                          : 12 бит
Бит/(Пиксели*Кадры)                      : 0.324
Размер потока                            : 144 Мбайт (94%)
Библиотека кодирования                   : x265 1.9+125-40afead3177d7c12 • Compiling by snayper [x265.ru]
Настройки программы                      : wpp / ctu=64 / min-cu-size=8 / max-tu-size=32 / tu-intra-depth=4 / tu-inter-depth=4 / me=2 / subme=7 / merange=64 / no-rect / no-amp / max-merge=5 / temporal-mvp / no-early-skip / rdpenalty=2 / no-tskip / no-tskip-fast / strong-intra-smoothing / no-lossless / no-cu-lossless / no-constrained-intra / no-fast-intra / no-open-gop / no-temporal-layers / interlace=0 / keyint=750 / min-keyint=1 / scenecut=0 / rc-lookahead=40 / lookahead-slices=0 / bframes=7 / bframe-bias=0 / b-adapt=2 / ref=16 / limit-refs=3 / no-limit-modes / weightp / no-weightb / aq-mode=1 / qg-size=32 / aq-strength=1.00 / cbqpoffs=0 / crqpoffs=0 / rd=4 / psy-rd=0.60 / rdoq-level=2 / psy-rdoq=2.20 / no-rd-refine / signhide / deblock=-2:-1 / sao / no-sao-non-deblock / b-pyramid / cutree / no-intra-refresh / rc=crf / crf=18.0 / qcomp=0.80 / qpmin=0 / qpmax=51 / qpstep=4 / ipratio=1.40 / pbratio=1.30
Default                                  : Да
Forced                                   : Нет
Цветовой диапазон                        : Limited
Основные цвета                           : BT.709
Характеристики трансфера                 : BT.709
Коэффициенты матрицы                     : BT.709

Аудио
Идентификатор                            : 2
Формат                                   : MPEG Audio
Версия формата                           : Version 1
Профиль формата                          : Layer 2
Идентификатор кодека                     : A_MPEG/L2
Идентификатор кодека/Подсказка           : MP2
Продолжительность                        : 3 м. 40 с.
Вид битрейта                             : Постоянный
Битрейт                                  : 224 Кбит/сек
Каналы                                   : 2 канала
Частота                                  : 48,0 КГц
Метод сжатия                             : С потерями
Задержка видео                           : 8 мс.
Размер потока                            : 5,88 Мбайт (4%)
Default                                  : Да
Forced                                   : Нет


x265 log

Код:



yuv  [info]: 944x720 fps 25/1 i420p16 unknown frame count
raw  [info]: output file: video.hevc
x265 [info]: HEVC encoder version 1.9+125-40afead3177d7c12
x265 [info]: build info [Windows][GCC 5.3.0][64 bit] 12bit
x265 [info]: Compiling by snayper [x265.ru]

x265 [info]: NONE profile, Level-NONE (Main tier)
x265 [info]: Thread pool created using 8 threads
x265 [info]: frame threads / pool features       : 2 / wpp(12 rows)
x265 [info]: Coding QT: max CU size, min CU size : 64 / 8
x265 [info]: Residual QT: max TU size, max depth : 32 / 4 inter / 4 intra
x265 [info]: ME / range / subpel / merge         : umh / 64 / 7 / 5
x265 [info]: Keyframe min / max / scenecut       : 1 / 750 / 0
x265 [info]: Intra 32x32 TU penalty type         : 2
x265 [info]: Lookahead / bframes / badapt        : 40 / 7 / 2
x265 [info]: b-pyramid / weightp / weightb       : 1 / 1 / 0
x265 [info]: References / ref-limit  cu / depth  : 16 / 1 / 1
x265 [info]: AQ: mode / str / qg-size / cu-tree  : 1 / 1.0 / 32 / 1
x265 [info]: Rate Control / qCompress            : CRF-18.0 / 0.80
x265 [info]: tools: rd=4 psy-rd=0.60 rdoq=2 psy-rdoq=2.20 signhide tmvp
x265 [info]: tools: strong-intra-smoothing deblock(tC=-2:B=-1) sao

x265 [info]: frame I:      8, Avg QP:16.08  kb/s: 13042.83  SSIM Mean: 0.992957 (21.522dB)
x265 [info]: frame P:   1341, Avg QP:17.39  kb/s: 10996.89  SSIM Mean: 0.991048 (20.481dB)
x265 [info]: frame B:   4159, Avg QP:21.78  kb/s: 3862.47   SSIM Mean: 0.988522 (19.401dB)
x265 [info]: Weighted P-Frames: Y:5.4% UV:4.0%
x265 [info]: consecutive B-frames: 2.4% 1.9% 5.0% 72.9% 11.3% 6.5% 0.0% 0.0%

encoded 5508 frames, 5612.78 kb/s, Avg QP:20.71, SSIM Mean Y: 0.9891435 (19.643 dB)


Скриншоты

Что такое HEVC и как его смотреть?


Внимание!
Рип в фомате HEVC, в настоящее время не поддерживается большинством аппаратных проигрывателей.
Для корректного воспроизведения может потребоваться обновление ПО.

Что такое HEVC


H.265/HEVC (High Efficiency Video Coding) - это новый стандарт кодирования видео.
Стандарт H.265/HEVC является логическим продолжением стандарта H.264/AVC (Advanced Video Coding), и харакетризуется более эффективными алгоритмами сжатия, а также поддержкой высокого разрешения вплоть до 8K UHD (8192x4320).
Первая версия стандарта H.265 была опубликована в начале 2013 года.

Как смотреть HEVC


Любителям решения из коробки - установить последнюю версию на выбор:
Media Player Classic - Black Edition (MPC-BE)
VLC media player
Daum Pot Player
GOM Media Player

Любителям WMP и других плееров, использующих по умолчанию для воспроизведения системные кодеки+сплитеры установить последнюю версию LAV Filters;
любой другой кодек-пак, в котором присутствует LAV Filters, например K-Lite Codec Pack версии 10.1.0 и выше.

Любимые плееры, не использующии по умолчанию для воспроизведения системные кодеки+сплитеры, нужно перенастроить на использование оных.
Alizee (La Isla Bonita) 720p.mkv.torrent
Трекер: Зарегистрирован

magnet ссылка

 


Скачать .torrent

12 KB

Статус: проверено (by Арт33 в 12-Апр-16 16:49)
Зарегистрирован: 12-Апр-16 13:23
Скачан: 42 раза
Размер: 153 MB | 
Поблагодарили:
Скачать Alizee - La Isla Bonita [2003, Pop, TVRip] [email protected] (up 720p) торрент
 


Похожие раздачи

Арт33

post 12-Апр-16 13:27 (спустя 4 минуты)

Постер великоват. 550*550 предел.

Dimmоn

post 12-Апр-16 13:31 (спустя 3 минуты)

freelich
Битрейт видео не соответствует данным МИ

freelich

post 12-Апр-16 16:48 (спустя 3 часа)

Арт33 согласен, упустил из виду, исправил.

Dimmоn это данные МИ не соответствуют битрейту видео.
подробности тут http://rustorka4.innal.top/forum/viewtopic.php?p=2610916#2610916

для примера, в твоём рипе такой же косяк - битрейт списан из МИ, а нужно брать из лога.

Текущее время: 15-Авг 16:55

Часовой пояс: GMT + 3



Вы не можете начинать темы
Вы не можете отвечать на сообщения
Вы не можете редактировать свои сообщения
Вы не можете удалять свои сообщения
Вы не можете голосовать в опросах
Вы не можете прикреплять файлы к сообщениям
Вы не можете скачивать файлы