Loading...
Error
 

Скачать торрент Тетрадь Смерти / Death Note [TV] [1-37 из 37] [Без хардсаба] [RUS(int),JAP, SUB] [2006 г., Мистика, триллер, детектив, DVDRip]

 
Автор Сообщение

GHOST549

post 07-Окт-10 00:23

Тетрадь Смерти / Death Note

pic
Страна: Япония
Год выпуска: 2006 г.
Жанр: Мистика, триллер, детектив
Тип: TV
Продолжительность: 37 эп, ~23 мин. серия
Режиссер: Араки Тэцуро
Студия: pic

Описание: У старшеклассника Лайта Ягами в жизни есть всё: успехи в школе, популярность среди сверстниц, замечательные родители, блестящее будущее. Возможно, поэтому так тяжело ему жить в мире, полном несправедливости, и осознавать, что никакие законы не способны исправить людей – и очистить мир от зла. Но однажды юноша находит странную чёрную тетрадку и знакомится с её владельцем – синигами Рюуком.

Возможности «Тетради смерти» позволяют Лайту стать Кирой – загадочным и всеведущим убийцей, карающим преступников. Более того – изучив правила использования тетради, юноша успешно избегает ловушек, расставленных спецслужбами. Никто не может его поймать.

У таинственного «L» никогда не было поражений: сохраняя инкогнито, он успешно распутывал самые трудные дела и помогал полиции. Появление Киры стало вызовом для его экстраординарных способностей.

Итак, два весьма умных и одарённых молодых человека сталкиваются в смертельном противостоянии, и теперь каждая мелочь, каждая случайность может склонить весы на ту или другую сторону.
На стороне Лайта – могущественная «Тетрадь Смерти».
У «L» есть поддержка полиции и опыт.
И никто не собирается проигрывать или сдаваться…

© Расселл Д. Джонс, World Art


pic
Доп. информация:

Качество: DVDRip
Формат видео: MKV
Релиз/Автор рипа: Релиз подготовил Dimpl23/Автор рипа [TSR].
Видео: MPEG4 Video (H264), 720x480 (Анаморф 853:480), 2 735 kbps, 23.98fps.
Аудио: MP3, 160 kbps, 44,1 KHz, 2ch. 1-6 Серии. Язык: Русский; Озвучка: Одноголосая NothinG.
Аудио 2: MP3, 128 kbps, 44,1 KHz, 2ch. 7-37 Серии. Язык: Русский; Озвучка: Одноголосая Cuba77.
Аудио 3: AC3, 256 Kbps, 48.0 KHz, 2ch. 1-37 Серии. Язык: Русский; Дубляж: Mega-Anime (2x2).
Аудио 4: AC3, 256 kbps, 48.0 KHz, 2ch. Язык Японский.
Субтитры: Ass, встроенные, сабы на надписи. 1-37 серии. Язык: русский; Перевод: Dimpl23.
Субтитры 2: Ass, встроенные. 1-33 Серии. Язык: русский; Перевод: oTpbIBku, StanWarHammer.
Субтитры 3: Ass, встроенные. 34-37 Серии. Язык: русский; Перевод: ShurShur, dark_dr4g0n.
Исправления и ошибки:
Были восстановлены фрагменты звука аудио дорожек от Cuba77 и NothinG. При появлении надписи "Продолжение следует", звук в некоторых сериях, резко обрывался.
-------------------------------------------------------
Нет превью в 8 серии.
-------------------------------------------------------
В 22 серии, звук в дорожке от Mega-Anime, во многих местах прерывается. Не смог исправить так как исправлять ее не из чего; в интернете только такую (покоцанную) аудио-дорожку и можно найти.
-------------------------------------------------------
Подробные тех. данные:
General
Complete name : D:\Death Note Project\Death Note\[TSR]_Death_Note_-_02.mkv
Format : Matroska
File size : 446 MiB
Duration : 22mn 47s
Overall bit rate : 2 735 Kbps
Encoded date : UTC 2010-09-20 12:04:24
Writing application : mkvmerge v4.1.0 ('Boiling Point') сборка от Jul 1 2010 14:37:28
Writing library : libebml v1.0.0 + libmatroska v1.0.0
Cover : Yes / Yes / Yes / Yes / Yes / Yes / Yes / Yes

Video
ID : 1
Format : AVC
Format/Info : Advanced Video Codec
Format profile : [email protected]
Format settings, CABAC : Yes
Format settings, ReFrames : 3 frames
Muxing mode : Container [email protected]
Codec ID : V_MPEG4/ISO/AVC
Duration : 22mn 47s
Bit rate : 2 009 Kbps
Nominal bit rate : 8 709 Kbps
Width : 720 pixels
Height : 480 pixels
Display aspect ratio : 16:9
Original display aspect ratio : 3:2
Frame rate : 23.976 fps
Standard : NTSC
Color space : YUV
Chroma subsampling : 4:2:0
Bit depth : 8 bits
Scan type : Progressive
Bits/(Pixel*Frame) : 0.242
Stream size : 327 MiB (73%)
Title : Релиз подготовил Dimpl23.
Writing library : x264 core 60 r880M 2389de2
Encoding settings : cabac=1 / ref=3 / deblock=1:0:0 / analyse=0x3:0x133 / me=hex / subme=5 / rdcmp=psy / brdo=0 / mixed_ref=1 / me_range=16 / chroma_me=1 / trellis=1 / 8x8dct=1 / cqm=0 / deadzone=21,11 / chroma_qp_offset=0 / threads=1 / nr=0 / decimate=1 / mbaff=0 / bframes=3 / b_pyramid=1 / b_adapt=1 / b_bias=0 / direct=1 / wpredb=1 / bime=1 / keyint=250 / keyint_min=25 / scenecut=40 / rc=2pass / bitrate=8709 / ratetol=1.0 / rceq='blurCplx^(1-qComp)' / qcomp=1.00 / qpmin=10 / qpmax=51 / qpstep=4 / cplxblur=20.0 / qblur=0.5 / ip_ratio=1.40 / pb_ratio=1.30 / aq=2:1.00

Audio #1
ID : 2
Format : MPEG Audio
Format version : Version 1
Format profile : Layer 3
Mode : Joint stereo
Muxing mode : Header stripping
Codec ID : A_MPEG/L3
Codec ID/Hint : MP3
Duration : 22mn 47s
Bit rate mode : Constant
Bit rate : 160 Kbps
Channel(s) : 2 channels
Sampling rate : 44.1 KHz
Stream size : 26.1 MiB (6%)
Title : NothinG
Language : Russian

Audio #2
ID : 3
Format : AC-3
Format/Info : Audio Coding 3
Mode extension : CM (complete main)
Muxing mode : Header stripping
Codec ID : A_AC3
Duration : 22mn 47s
Bit rate mode : Constant
Bit rate : 256 Kbps
Channel(s) : 2 channels
Channel positions : Front: L R
Sampling rate : 48.0 KHz
Bit depth : 16 bits
Stream size : 41.7 MiB (9%)
Title : Mega-Anime (2X2)
Language : Russian

Audio #3
ID : 4
Format : AC-3
Format/Info : Audio Coding 3
Mode extension : CM (complete main)
Muxing mode : Header stripping
Codec ID : A_AC3
Duration : 22mn 47s
Bit rate mode : Constant
Bit rate : 256 Kbps
Channel(s) : 2 channels
Channel positions : Front: L R
Sampling rate : 48.0 KHz
Bit depth : 16 bits
Stream size : 41.7 MiB (9%)
Title : Original
Language : Japanese

Text #1
ID : 5
Format : ASS
Codec ID : S_TEXT/ASS
Codec ID/Info : Advanced Sub Station Alpha
Title : Перевод только надписей (Dimpl23).
Language : Russian

Text #2
ID : 6
Format : ASS
Codec ID : S_TEXT/ASS
Codec ID/Info : Advanced Sub Station Alpha
Title : Перевод диалогов, надписей и.т.д. (Стэн "WarHammer" Самойлов, oTpbIBku, Tor).
Language : Russian

Menu
00:00:00.000 : en:Opening
00:01:20.700 : en:Act 1
00:12:15.999 : en:Act 2
00:21:20.800 : en:Ending
00:22:30.700 : en:Preview
Список эпизодов:
1. Rebirth
2. Confrontation
3. Dealings
4. Pursuit
5. Tactics
6. Unravelings
7. Overcast
8. Glare
9. Encounter
10. Doubt
11. Assault
12. Love
13. Confession
14. Friend
15. Wager
16. Decision
17. Execution
18. Ally
19. Matsuda
20. Makeshift
21. Performance
22. Guidance
23. Frenzy
24. Revival
25. Silence
26. Renewal
27. Abduction
28. Impatience
29. Father
30. Justice
31. Transfer
32. Selection
33. Scorn
34. Vigilance
35. Malice
36. 1.28
37. New World :shock:
Скриншоты:
pic
pic
pic
pic


Внимание! 18.01.2012 Раздача обновлена.
Исправлена проблема с запуском видео-файлов и заменены субтитры-надписи.
Death Note (DVDRip, 2006).torrent
Трекер: Зарегистрирован

magnet ссылка

 


Скачать .torrent

81 KB

Статус: проверено (by ShadowKot в 19-Янв-12 14:40)
Зарегистрирован: 18-Янв-12 15:59
Скачан: 1003 раза
Размер: 15.71 GB | 
Поблагодарили:
Скачать Тетрадь Смерти / Death Note [TV] [1-37 из 37] [Без хардсаба] [RUS(int),JAP, SUB] [2006 г., Мистика, триллер, детектив, DVDRip] торрент
 


Похожие раздачи

pachenko

post 07-Окт-10 00:28 (спустя 4 минуты)

GHOST549
все хорошо,единственное читаем

GHOST549

post 07-Окт-10 00:36 (спустя 8 минут)

тоесть мне надо перезалить на другой хостинг????

FruiTinG

post 03-Янв-12 19:59 (спустя 1 год 2 месяца)

Ну сколько можно? Осталось 0.4% и загрузка встала.... И так уже два дня. Автор еще в запое после нового года? =(

ShadowKot

post 18-Янв-12 16:27 (спустя 14 дней)

GHOST549
да. радикал не позволен. поправь позязя.

DarkPron

post 18-Янв-12 16:52 (спустя 24 минуты)

Это.. что ето есть, анимэ-сериал, закончился?)) или ещё будут выходить?))
(качать и смотреть стоит или нет)

shvlad

post 23-Окт-15 00:23 (спустя 3 года 9 месяцев)

Хороший анимэ-сериал

she

post 08-Фев-16 22:43 (спустя 3 месяца 16 дней)

Нормик релиз

Текущее время: 09-Дек 09:01

Часовой пояс: GMT + 3



Вы не можете начинать темы
Вы не можете отвечать на сообщения
Вы не можете редактировать свои сообщения
Вы не можете удалять свои сообщения
Вы не можете голосовать в опросах
Вы не можете прикреплять файлы к сообщениям
Вы не можете скачивать файлы